Skocz do zawartości
KrisPLCH

Problem z obróbką i odtwarzaniem jednego pliku MP4 - nie da się go odtworzyć i obrobić

Rekomendowane odpowiedzi

Dobry wieczór!

Kontaktuję się w sprawie bardzo irytującego problemu z jednym plikiem MP4, męczę się z tym od dłuższego czasu i do tej pory nie znalazłem rozwiązania - nie mogę go odtworzyć ani przerobić w żaden sposób, tak by był możliwy normalnie do odtworzenia. Owszem mam możliwość odtworzyć go na komputerze w VLC Media Player, jednak nie ma w Nim ścieżki dźwiękowej. Nie rozumiem dlaczego - w danych pliku ścieżka dźwiękowa normalnie widnieje i nie powinno być problemów z odtworzeniem. Ten plik to 1 z ponad 300 odcinków całego sezonu mojego ulubionego koreańskiego telewizyjnego programu. Jest on bardzo trudno dostępny - udało mi się znaleźć i pobrać cały sezon razem z jednego źródła. Wszystkie inne odcinki z tego źródła odtwarzają się bez jakichkolwiek problemów.

Z tym plikiem ewidentnie coś jest nie tak - nie jestem go w stanie odpalić w jakimkolwiek programie do edycji: Format Factory, MKV Toolnix, Sony Vegas, AviDemux, Virtual Dub itd. - wszędzie wyskakują błędy z informacją, że nie można obsłużyć tego pliku. Mój telewizor LG z serii Smart TV również nie może go odtworzyć (jestem pewien, że problemem nie jest kodowanie a brak ścieżki dźwiękowej/brak możliwości odtworzenia ścieżki dźwiękowej). 

Chciałem po prostu dodać/zamienić ścieżkę dźwiękową w programie MKV Toolnix bez żadnej kompresji - nie chcę tracić jakości i jest to najszybszy oraz najprostszy sposób. Pobrałem ten odcinek w gorszej jakości i mogę wyciągnąć ścieżkę dźwiękową. Praktycznie nigdy nie miałem problemów z podmianą ścieżek dźwiękowych w tym wspaniałym programie jednak tutaj mam - "The file 1N2D.E413.151004.HDTV.H264.720p-LIMO was not recognized as a supported format (exit code: 2)."

Proszę o pomoc z ruszeniem tego pliku. Bardzo mi zależy aby to poprawić i posiadać do odtworzenia kompletny sezon. Jeżeli ktoś chce sprawdzić u Siebie na komputerze - oczywiście podeślę prywatnie plik wraz ze ścieżką dźwiękową którą chcę dodać/zamienić. 

Umieszczam dane tego pliku z Media File Info: 

Cytat

General
Complete name                            : C:\Users\Krzysztof\Desktop\1N2D.E413.151004.HDTV.H264.720p-LIMO.mp4
Format                                   : MPEG-4
Format profile                           : Base Media
Codec ID                                 : isom (isom)
File size                                : 1.29 GiB
Duration                                 : 1 h 15 min
Overall bit rate mode                    : Variable
Overall bit rate                         : 2 441 kb/s
Encoded date                             : UTC 2015-10-04 10:47:41
Tagged date                              : UTC 2015-10-04 10:47:41

Video
ID                                       : 1
Format                                   : AVC
Format/Info                              : Advanced Video Codec
Format profile                           : Baseline@L1.3
Format settings                          : 1 Ref Frames
Format settings, CABAC                   : No
Format settings, Reference frames        : 1 frame
Codec ID                                 : avc1
Codec ID/Info                            : Advanced Video Coding
Duration                                 : 1 h 15 min
Bit rate                                 : 2 183 kb/s
Maximum bit rate                         : 8 849 kb/s
Width                                    : 1 280 pixels
Height                                   : 720 pixels
Display aspect ratio                     : 16:9
Frame rate mode                          : Constant
Frame rate                               : 29.970 (30000/1001) FPS
Color space                              : YUV
Chroma subsampling                       : 4:2:0
Bit depth                                : 8 bits
Scan type                                : Progressive
Bits/(Pixel*Frame)                       : 0.079
Stream size                              : 1.15 GiB (89%)
Encoded date                             : UTC 2015-10-04 10:12:53
Tagged date                              : UTC 2015-10-04 10:47:44
Codec configuration box                  : avcC

Audio
ID                                       : 2
Format                                   : AAC LC
Format/Info                              : Advanced Audio Codec Low Complexity
Codec ID                                 : mp4a-40-2
Duration                                 : 1 h 15 min
Bit rate mode                            : Variable
Bit rate                                 : 210 kb/s
Nominal bit rate                         : 256 kb/s
Maximum bit rate                         : 262 kb/s
Channel(s)                               : 2 channels
Channel layout                           : L R
Sampling rate                            : 48.0 kHz
Frame rate                               : 46.875 FPS (1024 SPF)
Compression mode                         : Lossy
Stream size                              : 114 MiB (9%)
Encoded date                             : UTC 2015-10-04 10:47:42
Tagged date                              : UTC 2015-10-04 10:47:44

 

Udostępnij tę odpowiedź


Odnośnik do odpowiedzi
Udostępnij na innych stronach

możesz ten plik podwiesić ?

 

Udostępnij tę odpowiedź


Odnośnik do odpowiedzi
Udostępnij na innych stronach
Napisano (edytowane)

@T_GTak, oczywiście.  Przed chwilą wrzuciłem ten plik na hosting i wysłałem Ci w wiadomości. 

Edytowane przez KrisPLCH

Udostępnij tę odpowiedź


Odnośnik do odpowiedzi
Udostępnij na innych stronach

Jeśli chcesz dodać odpowiedź, zaloguj się lub zarejestruj nowe konto

Jedynie zarejestrowani użytkownicy mogą komentować zawartość tej strony.

Zarejestruj nowe konto

Załóż nowe konto. To bardzo proste!

Zarejestruj się

Zaloguj się

Posiadasz już konto? Zaloguj się poniżej.

Zaloguj się

  • Ostatnio przeglądający   0 użytkowników

    Brak zarejestrowanych użytkowników przeglądających tę stronę.

×
×
  • Dodaj nową pozycję...